<svg xmlns="http://www.w3.org/2000/svg"><defs><font horiz-adv-x="1024"><font-face units-per-em="1024" ascent="960" descent="-64" /><missing-glyph horiz-adv-x="1024" /><glyph unicode="&#x20;" d="" horiz-adv-x="512" /><glyph unicode="&#xe600;" d="M676.571 637.696c-59.867 28.197-131.255 2.523-159.415-57.307-1.975-4.133-3.657-9.362-5.157-15.397-1.499 6.034-3.182 11.264-5.157 15.397-28.197 59.831-99.547 85.504-159.415 57.307-59.831-28.197-85.504-99.547-57.271-159.378 28.197-59.867 221.806-231.424 221.806-231.424s0 0.219 0.037 0.585c0.037-0.366 0.037-0.585 0.037-0.585s193.646 171.557 221.806 231.424c28.233 59.831 2.597 131.182-57.271 159.378z" /><glyph unicode="&#xe601;" d="M676.571 637.696c-59.831 28.197-131.218 2.523-159.451-57.307-1.938-4.133-3.657-9.362-5.157-15.397-1.463 6.034-3.182 11.264-5.157 15.397-28.16 59.831-99.547 85.504-159.378 57.307s-85.467-99.547-57.271-159.378 221.806-231.424 221.806-231.424 0 0.219 0.037 0.585c0-0.402 0-0.622 0-0.622s193.646 171.557 221.842 231.424c28.233 59.867 2.597 131.218-57.271 159.415zM690.213 479.232c-25.417-43.776-174.007-184.722-174.007-184.722l-1.573 2.999c0 0-155.465 140.398-181.211 183.991-30.61 51.822-7.753 108.946 38.949 128.439 43.52 18.176 101.888-27.319 123.502-73.143 1.499-3.182 17.627-1.463 18.798-6.107 1.134 4.645 12.727 2.926 14.226 6.107 21.577 45.824 81.042 93.989 128 72.411 46.007-21.138 66.926-72.155 33.317-129.975z" /><glyph unicode="&#xe602;" d="M512 704.11l-296.85-512.256h593.701l-296.85 512.256zM544.219 254.135h-62.757v49.92h62.757v-49.92zM528.713 343.369h-31.269l-20.809 140.654-1.207 72.704h72.521v-72.704l-19.237-140.654z" /><glyph unicode="&#xe603;" d="M628.846 588.544c-34.085 28.343-75.63 42.24-116.773 42.24-47.47 0-94.757-18.578-130.085-54.382l-32.073 29.586-0.585-102.693 110.994-0.658-39.424 41.253c25.198 24.027 58.002 36.315 91.136 36.352 29.842-0.037 59.721-9.947 84.517-30.574 31.488-26.222 47.689-63.744 47.726-101.815 0-5.449-0.366-10.971-1.024-16.457l51.383 9.874c0.073 2.231 0.146 4.425 0.146 6.619 0.037 52.37-22.491 104.521-65.938 140.654zM603.794 352.768c-25.307-24.466-58.405-37.010-91.867-37.047-29.879 0.037-59.721 9.984-84.517 30.574-31.488 26.222-47.689 63.744-47.726 101.778 0 6.327 0.475 12.617 1.353 18.871l-51.602-9.691c-0.146-3.072-0.256-6.107-0.256-9.179-0.037-52.334 22.491-104.521 65.975-140.617 34.048-28.343 75.593-42.24 116.736-42.24h0.11c47.799 0 95.378 18.907 130.743 55.223l33.938-33.829 0.219 106.094-112.055 0.293 38.949-40.229z" /><glyph unicode="&#xe604;" d="M696.942 624.933l-19.273 6.107h-74.496v38.583l-12.544 21.029-22.711 13.495h-111.141l-23.333-13.495-12.581-21.029v-38.619h-73.765l-18.761-6.656-17.189-14.153v-88.869h19.017v-0.073h17.554v-329.435h36.571v0.293h255.415v-0.293h36.571v329.435h18.286v0.073h18.286v86.601l-15.909 17.006zM457.435 667.575h109.129v-36.571h-109.129v36.571zM639.707 228.718h-255.415v292.571h255.415v-292.571zM676.279 557.934h-328.558v36.498h328.558v-36.498zM457.435 483.511h-36.571v-218.587h36.571v218.587zM530.578 483.511h-36.571v-218.587h36.571v218.587zM603.721 483.511h-36.571v-218.587h36.571v218.587z" /><glyph unicode="&#xe605;" d="M804.645 515.401c-1.499 4.681-5.888 7.899-10.789 7.899h-206.958l-64.073 196.754c-1.536 4.645-5.888 7.826-10.825 7.826-4.901 0-9.289-3.182-10.825-7.863l-64.439-196.754h-206.592c-4.901 0-9.289-3.218-10.825-7.863-1.499-4.681 0.146-9.874 4.096-12.763l167.205-121.783-64.439-197.851c-1.536-4.681 0.146-9.838 4.133-12.727 3.95-2.889 9.399-2.889 13.349 0l168.338 122.185 167.936-122.149c2.011-1.463 4.315-2.231 6.693-2.231s4.681 0.768 6.693 2.231c4.023 2.889 5.669 8.009 4.133 12.727l-64.439 197.851 167.57 121.783c3.95 2.889 5.632 8.046 4.059 12.727z" /><glyph unicode="&#xe606;" d="M807.241 415.854v67.145l-9.509 3.145-71.936 23.442-19.2 46.373 36.937 78.080-47.506 47.506-8.923-4.498-67.438-34.304-46.373 19.2-29.111 81.298h-67.182l-26.624-81.445-46.336-19.163-78.043 36.901-47.506-47.506 4.498-8.96 34.267-67.438-19.2-46.336-81.298-29.074v-67.218l9.472-3.072 71.973-23.515 19.163-46.373-36.901-78.080 47.506-47.506 8.887 4.498 67.474 34.304 46.373-19.2 29.111-81.298h67.182l3.072 9.509 23.515 71.936 46.373 19.2 78.080-36.937 47.506 47.506-4.498 8.923-34.304 67.438 19.2 46.373 81.298 29.147zM512 353.938c-51.968 0-94.062 42.13-94.062 94.062 0 52.005 42.094 94.062 94.062 94.062 51.931 0 94.098-42.057 94.098-94.062-0.037-51.931-42.167-94.062-94.098-94.062z" /><glyph unicode="&#xe607;" d="M339.602 539.941l172.398-183.881 172.398 183.881z" /><glyph unicode="&#xe608;" d="M606.939 449.938l-158.391 162.853-27.794-26.075 132.827-136.558-136.521-140.361 27.173-26.587 153.198 157.55-0.146 0.146z" /><glyph unicode="&#xe609;" d="M127.634 740.571v-73.143h768.731v73.143h-768.731zM127.634 411.429h768.731v73.143h-768.731v-73.143zM127.634 155.429h768.731v73.143h-768.731v-73.143z" /><glyph unicode="&#xe60a;" d="M512 742.217c-102.437 0-185.417-83.054-185.417-185.454 0-102.437 185.417-403.017 185.417-403.017s185.454 300.581 185.454 403.017c-0.037 102.437-83.017 185.454-185.454 185.454zM512 500.443c-31.122 0-56.357 25.198-56.357 56.357 0 31.086 25.234 56.357 56.357 56.357 31.159 0 56.393-25.271 56.393-56.357-0.037-31.159-25.271-56.357-56.393-56.357z" /><glyph unicode="&#xe60b;" d="M219.429 485.595h255.927v254.793h-255.927v-254.793zM548.571 740.389v-109.349h256v109.349h-256zM219.429 156.453h255.927v254.793h-255.927v-254.793zM548.571 484.754h256v109.349h-256v-109.349zM548.571 301.897h256v109.349h-256v-109.349zM548.571 155.611h256v109.349h-256v-109.349z" /><glyph unicode="&#xe60c;" d="M579.511 677.010c-30.793 0-57.381-25.161-57.381-55.954 0-28.635 18.907-47.579 47.579-47.579 31.415 0 58.002 23.771 58.002 55.991 0 28.709-20.224 47.543-48.201 47.543zM593.518 336.494c-9.801 0-48.311-59.502-69.266-59.502-5.595 0-8.375 4.937-8.375 9.801 0 11.227 7.68 28.709 11.849 39.205l50.322 136.375c25.198 67.84-6.985 86.016-37.047 86.016-40.558 0-76.946-20.297-104.887-46.848-9.106-9.070-39.863-38.437-39.863-51.054 0-4.133 4.169-9.070 9.106-9.070 12.544 0 46.153 60.855 72.009 60.855 5.595 0 11.886-6.29 6.985-18.871l-48.896-123.173c-4.937-11.849-28.709-69.23-28.709-102.802 0-26.587 17.518-38.437 42.679-38.437 70.656 0 152.43 86.711 152.43 107.008 0 6.29-4.864 10.496-8.338 10.496z" /><glyph unicode="&#xe60d;" d="M219.063 593.92h147.017v147.017h-147.017v-147.017zM438.491 593.92h147.017v147.017h-147.017v-147.017zM657.92 740.937v-147.017h147.017v147.017h-147.017zM219.063 374.491h147.017v147.017h-147.017v-147.017zM438.491 374.491h147.017v147.017h-147.017v-147.017zM657.92 374.491h147.017v147.017h-147.017v-147.017zM219.063 155.063h147.017v147.017h-147.017v-147.017zM438.491 155.063h147.017v147.017h-147.017v-147.017zM657.92 155.063h147.017v147.017h-147.017v-147.017z" /><glyph unicode="&#xe60e;" d="M711.607 401.591l-5.486-5.522c21.065 27.794 32.878 60.197 32.219 94.72-1.975 99.218-106.679 177.627-233.874 175.141-127.232-2.487-228.791-84.992-226.816-184.21 1.938-99.182 106.679-177.554 233.911-175.067 28.635 0.585 50.432-5.815 75.63 2.121l159.232-78.702c-0.037-0.037-71.058 124.965-34.816 171.52z" /><glyph unicode="&#xe60f;" d="M236.946 466.286h550.107v-36.571h-550.107v36.571z" /><glyph unicode="&#xe610;" d="M749.129 663.698c-152.101-93.257-262.473-210.907-312.064-269.934l-121.417 95.159-53.65-43.264 209.847-213.394c36.096 92.489 150.491 273.298 290.158 401.737l-12.873 29.696z" /><glyph unicode="&#xe611;" d="M434.871 259.95c-35.218 0-63.707-28.526-63.707-63.744 0-35.182 28.489-63.671 63.707-63.671 35.182 0 63.707 28.489 63.707 63.671 0 35.218-28.526 63.744-63.707 63.744zM654.848 259.95c-35.218 0-63.707-28.526-63.707-63.744 0-35.182 28.489-63.671 63.707-63.671 35.145 0 63.707 28.489 63.707 63.671 0 35.218-28.562 63.744-63.707 63.744zM784.274 616.741c-163.511 0-427.227 0-427.227 0s-25.929 70.071-49.957 113.371c-24.027 43.227-57.893 32.037-57.893 32.037-26.843 0-39.314-16.055-39.314-42.971 0-26.843 16.457-48.64 43.337-48.64l16.603-14.848 121.929-330.533 356.425-0.256c0 0 65.17 261.705 61.806 251.355 11.959 36.974-3.255 40.485-25.71 40.485zM392.485 492.544c-18.725 0-33.902 15.177-33.902 33.902s15.177 33.902 33.902 33.902 33.902-15.177 33.902-33.902-15.177-33.902-33.902-33.902zM464.933 379.392c-18.725 0-33.902 15.177-33.902 33.902s15.177 33.902 33.902 33.902 33.902-15.177 33.902-33.902-15.177-33.902-33.902-33.902zM502.199 492.544c-18.725 0-33.902 15.177-33.902 33.902s15.177 33.902 33.902 33.902 33.902-15.177 33.902-33.902-15.177-33.902-33.902-33.902zM574.647 379.392c-18.725 0-33.865 15.177-33.865 33.902s15.177 33.902 33.865 33.902 33.938-15.177 33.938-33.902-15.214-33.902-33.938-33.902zM611.913 492.544c-18.725 0-33.938 15.177-33.938 33.902s15.214 33.902 33.938 33.902 33.865-15.177 33.865-33.902-15.141-33.902-33.865-33.902zM684.361 379.392c-18.725 0-33.865 15.177-33.865 33.902s15.141 33.902 33.865 33.902 33.938-15.177 33.938-33.902-15.214-33.902-33.938-33.902zM721.627 492.544c-18.725 0-33.938 15.177-33.938 33.902s15.214 33.902 33.938 33.902 33.865-15.177 33.865-33.902-15.141-33.902-33.865-33.902z" /><glyph unicode="&#xe612;" d="M642.487 578.304c11.959 0 21.65 9.691 21.65 21.65v77.934c0 11.959-9.691 21.65-21.65 21.65-11.922 0-21.65-9.691-21.65-21.65v-77.934c0.037-11.959 9.728-21.65 21.65-21.65zM381.842 578.304c11.922 0 21.65 9.691 21.65 21.65v77.934c0 11.959-9.728 21.65-21.65 21.65-11.959 0-21.65-9.691-21.65-21.65v-77.934c0.037-11.959 9.691-21.65 21.65-21.65zM671.269 636.562v-0.402c8.997-7.973 14.702-19.566 14.702-32.549 0-23.991-19.456-43.447-43.483-43.447-23.991 0-43.447 19.456-43.447 43.447 0 12.946 5.705 24.576 14.702 32.549v0.402h-203.154v-0.402c8.997-7.973 14.702-19.566 14.702-32.549 0-23.991-19.456-43.447-43.447-43.447-24.027 0-43.447 19.456-43.447 43.447 0 12.946 5.669 24.576 14.665 32.549v0.402h-96.841v-440.101h511.561v440.101h-96.512zM732.087 234.569h-437.76v291.694h437.76v-291.694zM619.301 407.113h-55.15v-55.113h55.15v55.113zM619.301 490.021h-55.15v-55.113h55.15v55.113zM619.301 326.51h-55.15v-55.15h55.15v55.15zM696.942 490.021h-55.15v-55.113h55.15v55.113zM696.942 407.113h-55.15v-55.113h55.15v55.113zM386.267 326.51h-55.113v-55.15h55.113v55.15zM463.982 326.51h-55.15v-55.15h55.15v55.15zM463.982 407.113h-55.15v-55.113h55.15v55.113zM386.267 407.113h-55.113v-55.113h55.113v55.113zM541.586 407.113h-55.113v-55.113h55.113v55.113zM541.586 490.021h-55.113v-55.113h55.113v55.113zM463.982 490.021h-55.15v-55.113h55.15v55.113zM541.586 326.51h-55.113v-55.15h55.113v55.15z" /><glyph unicode="&#xe613;" d="M512 677.742l-209.006-253.257h136.338v-206.19h145.298v206.19h136.375z" /><glyph unicode="&#xe614;" d="M584.631 471.515v206.226h-145.298v-206.226h-136.338l209.006-253.221 209.006 253.221z" /><glyph unicode="&#xe615;" d="M836.462 183.918c0 0-109.641 112.677-153.381 156.233-19.054 19.017-32.073 31.927-32.073 31.927 14.848 21.211 26.405 44.361 34.633 69.339s12.361 51.237 12.361 78.848c0 35.621-6.802 69.083-20.334 100.462-13.568 31.305-32 58.697-55.406 82.030-23.369 23.442-50.725 41.874-82.066 55.406-31.305 13.605-64.768 20.37-100.389 20.37-35.584 0-69.047-6.802-100.425-20.37-31.305-13.531-58.551-31.963-81.664-55.406-23.077-23.296-41.435-50.688-54.967-81.993-13.568-31.378-20.334-64.841-20.334-100.462s6.802-69.083 20.334-100.389c13.531-31.305 31.89-58.661 54.967-82.103 23.113-23.333 50.322-41.801 81.664-55.369 31.378-13.568 64.841-20.297 100.425-20.297 27.648 0 53.943 4.023 78.885 12.288s48.091 19.858 69.303 34.706c0 0 11.922-11.959 29.696-29.806 48.421-48.603 155.026-159.159 155.026-159.159 16.018-6.985 41.728 0.439 54.455 11.337s19.858 33.682 9.289 52.407zM612.718 447.013c-9.838-22.747-23.223-42.569-40.155-59.429-16.933-16.933-36.718-30.354-59.429-40.192-22.638-9.874-46.848-14.775-72.521-14.775-26.258 0-50.688 4.937-73.362 14.775s-42.496 23.259-59.429 40.192c-16.896 16.859-30.354 36.681-40.155 59.429-9.838 22.601-14.738 47.104-14.738 73.289 0 25.673 4.901 50.030 14.738 72.997 9.838 22.93 23.259 42.898 40.155 59.794 16.933 16.969 36.754 30.354 59.429 40.155 22.674 9.911 47.104 14.738 73.362 14.738 25.673 0 49.883-4.864 72.521-14.738 22.674-9.801 42.496-23.186 59.429-40.155 16.933-16.933 30.318-36.901 40.155-59.831 9.874-22.967 14.738-47.323 14.738-72.997 0-26.149-4.901-50.651-14.738-73.253z" /><glyph unicode="&#xe616;" d="M695.845 602.661l-29.147 29.111-154.697-154.734-154.734 154.734-29.111-29.111 154.734-154.734-154.624-154.624 29.111-29.074 154.624 154.587 154.661-154.587 29.038 29.074-154.587 154.624z" /><glyph unicode="&#xe617;" d="M470.418 450.158l132.791 136.558-27.794 26.075-158.354-162.853 9.618-9.033-0.11-0.146 153.234-157.55 27.136 26.587z" /><glyph unicode="&#xe618;" d="M512 539.941l-172.398-183.881h344.795z" /><glyph unicode="&#xe619;" d="M392.119 622.043v-348.087l239.726 174.043z" /><glyph unicode="&#xe61a;" d="M392.119 448l239.726-174.043v348.087z" /><glyph unicode="&#xe61b;" d="M237.714 191.159h73.728v513.682h-73.728v-513.682zM786.286 703.086h-440.283v-292.169h440.283l-148.078 144.128 148.078 148.041z" /><glyph unicode="&#xe61c;" d="M787.054 466.359h-256.219v256.695h-36.571v-256.695h-257.317v-36.571h257.317v-256.841h36.571v256.841h256.219z" /><glyph unicode="&#xe61d;" d="M769.134 594.286v36.571h-513.17v-25.271l-1.097-1.097 1.097-1.097v-9.106h0.622v-292.571h-0.622v-8.558l-1.097-1.097 1.097-1.097v-25.819h513.17v36.571h-0.585v292.571h0.585zM703.89 301.714h-387.657l119.881 119.881-25.856 25.856-117.138-117.138v236.361l220.014-217.088 25.856 25.856-1.39 1.353 194.377 194.341v-245.87l-122.149 122.149-25.856-25.856 119.918-119.845zM317.221 594.286h386.158l-191.781-191.781-194.377 191.781z" /><glyph unicode="&#xe61e;" d="M310.747 210.359h109.166v328.485h-109.166v-328.485zM604.050 355.584v-145.225h109.202v145.225h-109.202zM457.399 210.359h109.202v475.319h-109.202v-475.319z" /><glyph unicode="&#xe61f;" d="M310.747 210.359h109.166v328.485h-109.166v-328.485zM347.941 503.625h36.864v-256.768h-36.864v256.768zM604.050 355.584v-145.225h109.202v145.225h-109.202zM677.339 246.711h-36.827v71.863h36.827v-71.863zM457.399 210.359h109.202v475.319h-109.202v-475.319zM494.263 649.838h36.827v-402.834h-36.827v402.834z" /><glyph unicode="&#xe620;" d="M519.57 665.893c-127.232 2.487-231.936-75.922-233.911-175.141-0.695-34.487 11.154-66.926 32.219-94.72l-5.486 5.522c36.242-46.519-34.816-171.52-34.816-171.52l159.232 78.702c25.161-7.936 46.994-1.536 75.63-2.121 127.232-2.487 231.973 75.886 233.911 175.067 2.011 99.255-99.511 181.723-226.779 184.21z" /><glyph unicode="&#xe621;" d="M514.158 489.582l136.558-132.791 26.075 27.794-162.853 158.354-166.729-162.743 26.587-27.136z" /><glyph unicode="&#xe622;" d="M509.842 406.418l-136.558 132.791-26.075-27.794 162.853-158.354 166.729 162.743-26.587 27.136z" /><glyph unicode="&#xe623;" d="M512 52.005c-218.77 0-396.032 177.298-396.032 395.995s177.262 395.995 396.032 395.995c218.661 0 396.032-177.298 396.032-395.995s-177.371-395.995-396.032-395.995zM512 796.087c-191.89 0-348.087-156.197-348.087-348.087 0-191.927 156.197-348.087 348.087-348.087s348.050 156.16 348.050 348.087c-0.037 191.927-156.16 348.087-348.050 348.087zM611.328 442.441l-24.101-18.761c-13.166-10.24-21.87-22.126-26.185-35.84-2.743-8.558-4.681-18.907-4.901-37.12h-92.343c1.353 38.473 5.413 61.842 11.301 76.581 5.925 14.592 21.102 31.488 45.531 50.578l24.795 19.383c8.192 6.181 14.738 12.91 19.785 20.187 8.997 12.471 13.495 26.222 13.495 41.216 0 17.262-5.010 32.987-15.104 47.214-10.057 14.226-28.453 21.321-55.259 21.321-26.295 0-44.946-8.777-55.918-26.295s-16.384-33.463-16.384-52.37h-98.523c2.706 64.805 25.234 108.544 67.73 135.57 26.843 17.298 59.794 25.929 98.889 25.929 51.383 0 94.025-12.288 128-36.827 34.011-24.503 53.87-74.935 53.87-123.173 0-29.55-10.24-40.338-25.051-60.599-8.558-12.288-25.125-27.941-49.627-46.994zM561.042 202.423h-98.231v98.487h98.231v-98.487z" /><glyph unicode="&#xe624;" d="M1.994 518.75h748.928l-283.278 291.206h200.254l354.108-363.956-354.108-363.956h-200.254l283.278 291.174h-748.928v145.532z" /><glyph unicode="&#xe625;" d="M1022.006 375.25h-748.928l283.278-291.206h-200.254l-354.108 363.956 354.108 363.956h200.254l-283.278-291.174h748.928v-145.532z" /><glyph unicode="&#xe626;" d="M85.174 468.026l0.504-106.238 426.322-426.324 426.32 426.324 0.504 106.238-389.444-389.444 0.002 880.006h-74.764v-880.004z" /><glyph unicode="&#xe627;" d="M511.963 831.086c-211.529 0-383.049-171.52-383.049-383.086s171.483-383.086 383.049-383.086c211.602 0 383.086 171.483 383.086 383.086s-171.483 383.086-383.086 383.086zM511.963 794.514c191.086 0 346.514-155.429 346.514-346.514 0-79.909-27.429-153.344-73.070-212.041-5.486 1.975-11.008 3.84-16.274 6.107-34.926 14.629-73.801 31.781-108.654 46.153-9.911 2.706-19.931 5.413-29.842 8.155-11.849 8.155-23.589 35.365-29.915 48.933-6.29 0.914-12.654 1.792-19.017 2.633 0.914 20.992 13.934 22.126 19.017 38.071 4.498 14.080 0.512 32.439 7.57 45.495 4.937 9.070 16.128 9.070 21.65 16.933 5.083 6.985 8.411 19.273 9.984 27.941 2.853 15.799 5.339 37.339-2.158 53.029-4.279 8.96-6.985 9.874-8.229 20.736-1.426 13.275 3.913 56.43 4.133 65.755 0.512 24.21-0.073 26.149-5.925 49.737 0 0-7.058 21.358-18.213 27.831l-22.272 3.803-13.714 12.727c-55.369 34.085-114.761 10.167-146.505-2.67-45.824-14.885-74.789-59.758-54.565-155.538 3.474-16.421-8.96-23.698-8.155-32.658 1.829-19.566 2.158-66.487 20.59-78.080 1.719-1.061 14.811-4.352 14.738-3.438 1.792-19.017 3.621-38.071 5.376-57.015 4.608-12.654 15.689-14.080 18.907-31.927l-14.153-3.438c-6.363-13.568-17.993-40.777-29.879-48.933-9.947-2.706-19.931-5.413-29.879-8.155-34.889-14.373-73.691-31.488-108.654-46.153-1.902-0.768-3.877-1.39-5.815-2.158-43.776 58.112-70.071 130.011-70.071 208.165 0 191.086 155.429 346.514 346.478 346.514z" /><glyph unicode="&#xe628;" d="M427.703 653.019c0-10.569-8.558-19.090-19.090-19.090h-11.154c-10.533 0-19.090 8.521-19.090 19.090v68.462c0 10.533 8.594 19.090 19.090 19.090h11.154c10.533 0 19.090-8.558 19.090-19.090v-68.462zM645.778 653.019c0-10.569-8.521-19.090-19.054-19.090h-11.154c-10.533 0-19.054 8.521-19.054 19.090v68.462c-0.037 10.533 8.485 19.090 19.054 19.090h11.154c10.533 0 19.054-8.558 19.054-19.090v-68.462zM675.182 481.317l-38.729 31.598-152.795-187.282-81.518 64.805-28.891-36.242 120.21-95.634zM758.784 687.982h-71.351v-29.769c0-31.634-25.746-57.344-57.271-57.344h-11.227c-31.598 0-57.271 25.71-57.271 57.344v29.769h-97.682v-29.769c0-31.634-25.71-57.344-57.307-57.344h-11.154c-31.598 0-57.307 25.71-57.307 57.344v29.769h-72.96c-10.533 0-19.090-8.521-19.090-19.054v-494.373c-0.037-10.569 8.558-19.127 19.090-19.127h493.531c10.533 0 19.054 8.558 19.054 19.090v494.409c0 10.533-8.521 19.054-19.054 19.054zM720.567 240.677c0-10.569-8.558-19.090-19.090-19.090h-378.917c-10.569 0-19.090 8.521-19.090 19.090v288.11c0 10.569 8.521 19.054 19.090 19.054h378.88c10.533 0 19.090-8.485 19.090-19.054v-288.11z" /><glyph unicode="&#xe629;" d="M391.863 554.203h-128.219c-10.35 0-18.761-8.375-18.761-18.725v-91.429c0-10.35 8.375-18.725 18.761-18.725h128.219c10.35 0 18.761 8.375 18.761 18.725v91.429c0 10.386-8.375 18.725-18.761 18.725zM391.863 387.511h-90.734c-10.35 0-18.761-8.375-18.761-18.725v-194.633c0-10.35 8.411-18.725 18.761-18.725h90.734c10.35 0 18.761 8.375 18.761 18.725v194.633c0 10.35-8.375 18.725-18.761 18.725zM760.357 554.203h-279.845c-10.35 0-18.725-8.375-18.725-18.725v-91.429c0-10.35 8.375-18.725 18.725-18.725h279.845c10.313 0 18.725 8.375 18.725 18.725v91.429c-0.037 10.386-8.411 18.725-18.725 18.725zM721.701 385.573h-240.64c-10.313 0-18.725-8.375-18.725-18.761v-192.695c0-10.35 8.375-18.725 18.725-18.725h240.64c10.35 0 18.725 8.375 18.725 18.725v192.695c0 10.35-8.375 18.761-18.725 18.761zM507.355 575.634c21.87-3.986 42.971-6.327 62.647-6.327 99.072 0 152.832 53.248 153.088 103.387 0.183 32.293-23.698 67.291-78.117 67.84-72.923 0-118.089-51.493-141.605-89.71-23.918 38.107-69.266 88.576-142.373 88.576-52.882-0.549-76.763-35.547-76.581-67.84 0.256-50.139 54.016-103.424 153.088-103.424 0.037 0 0.037 0 0.037 0 21.394 0 44.398 2.414 68.425 7.241l1.39 0.256zM645.998 693.723c9.143-0.073 30.354-2.304 30.245-20.773-0.11-23.589-33.17-56.795-106.24-56.795-10.057 0-20.553 0.658-31.525 1.938 16.567 29.294 51.566 75.63 107.52 75.63zM437.504 614.985v0c-73.106 0-106.167 33.207-106.277 56.795-0.11 18.469 21.102 20.699 31.305 20.809 55.259 0 90.039-46.373 106.496-75.666-10.935-1.28-21.467-1.938-31.525-1.938z" /><glyph unicode="&#xe633;" d="M938.824 426.028l-0.504 106.238-426.32 426.322-426.322-426.322-0.504-106.238 389.444 389.442v-880.006h74.764v880.006z" /></font>
</defs>
</svg>
